Movies - Other

Porto 2016 [MultiSubs] 720p BRRip x264-titler

  • Download 5x Faster
  • Download torrent
  • Direct Download
  • Rate this torrent +  |  -
Porto 2016 [MultiSubs] 720p BRRip x264-titler

Download FREE And Anonymously


Torrent info

Name:Porto 2016 [MultiSubs] 720p BRRip x264-titler

Total Size: 913.73 MB

Magnet: Magnet Link

Seeds: 7

Leechers: 5

Stream: Watch Full Movie @ Movie4u

Last Updated: 2018-07-22 13:36:30 (Update Now)

Torrent added: 2018-07-13 02:20:15



CyberGhost VPN For Torrents

Torrent Files List


Subtitles (Size: 913.73 MB) (Files: 6)

 Subtitles

  Porto (2016)_French.srt

27.58 KB

  Porto (2016)_Spanish.srt

27.87 KB

 Porto 2016 [MultiSubs] 720p BRRip x264-titler.srt

32.45 KB

 Porto (2016).jpg

201.79 KB

 Sample.mkv

20.77 MB

 Porto 2016 [MultiSubs] 720p BRRip x264-titler.mkv

892.67 MB
 

tracker

leech seeds
 

Torrent description

SOURCE:
--------------
Porto 2016 720p BluRay x264-HANDJOB


http://www.imdb.com/title/tt4446472/

http://en.wikipedia.org/wiki/Porto_(film)


- SAMPLE: Yes

- SUBTITLES: English, Spanish, French

- LANGUAGE / AUDIO: English, Portuguese, French


TECHNICAL SPECIFICATIONS
-------------------------------------
http://www.imdb.com/title/tt4446472/technical?ref_=tt_dt_spec


SCREENSHOTS:
-------------------
http://www.use.com/OhEHO


DIRECTOR: Gabe Klinger


CAST: Anton Yelchin, Lucie Lucas, Paulo Calatré, Françoise Lebrun, ...


PLOT:
-----------
Jake and Mati are two outsiders in Porto who once experienced a brief connection. A mystery remains about the moments they shared, and in searching through memories, they relive the depths of a night uninhibited by the consequences of time.
************************************

- Duration: 1h 16min

- Nominal bit rate: 1518 kb/s

- Res: 1280 x 712

- AR: 16:9

- FPS: 23.976 FPS

- Audio: AAC, 2 channels, 128 Kbps

************************************

General
--------------
Format : Matroska
Format version : Version 4 / Version 2
File size : 893 MiB
Duration : 1h 16min
Overall bit rate : 1625 kb/s
Encoded date : UTC 2018-07-12 23:38:24
Writing application : mkvmerge v25.0.0 (\'Prog Noir\') 64-bit
Writing library : libebml v1.3.6 + libmatroska v1.4.9

Video
-----------
Format : AVC
Format/Info : Advanced Video Codec
Format profile : [email protected]
Format settings : CABAC / 5 Ref Frames
Format settings, CABAC : Yes
Format settings, ReFrames : 5 frames
Codec ID : V_MPEG4/ISO/AVC
Duration : 1h 16min
Bit rate : 1518 kb/s
Width : 1280 pixels
Height : 712 pixels
Display aspect ratio : 16:9
Frame rate mode : Constant
Frame rate : 23.976 FPS
Color space : YUV
Chroma subsampling : 4:2:0
Bit depth : 8 bits
Scan type : Progressive
Bits/(Pixel*Frame) : 0.069
Stream size : 821 MiB (92%)
Writing library : x264 core 142
Encoding settings : cabac=1 / ref=5
Default : Yes
Forced : No

Audio
-------------
Format : AAC
Format/Info : Advanced Audio Codec
Format profile : LC
Codec ID : A_AAC-2
Duration : 1h 16min
Bit rate : 128 kb/s
Channel(s) : 2 channels
Channel positions : Front: L R
Sampling rate : 48.0 kHz
Compression mode : Lossy
Stream size : 70.3 MiB (8%)
Title : Stereo
Language : English
Default : Yes
Forced : No

related torrents

Torrent name

health leech seeds Size
 


comments (0)

Main Menu